Microsoft MVP성태의 닷넷 이야기
글쓴 사람
정성태 (techsharer at outlook.com)
홈페이지
첨부 파일
 

C# - ffmpeg(FFmpeg.AutoGen)를 이용한 비디오 디코딩 예제(decode_video.c) - 세 번째 이야기

지난 글에 의견을 주신 이승준 님 덕분에,

C# - ffmpeg(FFmpeg.AutoGen)를 이용한 비디오 디코딩 예제(decode_video.c) - 두 번째 이야기
; https://www.sysnet.pe.kr/2/0/12959#15570

드디어 decode_video.c의 동작을 확인했습니다. ^^ 댓글 의견이 정답인데요, 어쨌든 컨테이너 없이 저장된 유형이면 디코딩이 되었습니다.

Pure version of FFmpeg to decode av_parser_parse2
; https://titanwolf.org/Network/Articles/Article?AID=d650b07d-cc80-4c8b-be0c-cf04e0da6435

simplest_ffmpeg_player/simplest_ffmpeg_decoder_pure/
; https://github.com/leixiaohua1020/simplest_ffmpeg_player/tree/master/simplest_ffmpeg_decoder_pure

"
Mainly through to get AVPaket data av_parser_parse2, similar with av_read_frame.
Input must contain only the video encoded data "naked flow" (e.g. H.264, HEVC code stream file), but not containing encapsulated media data format (e.g., AVI, MKV, MP4).
"


decode_video.c 소스 코드를 테스트하기 위한 동영상은 ffmpeg.exe를 이용해 확장자만 m1v로 지정해 생성할 수 있습니다.

d:\media_sample> ffmpeg -i the-ade-changed.mkv -q:v 0 mpeg1video_q0.m1v
ffmpeg version 4.3.2-2021-02-27-full_build-www.gyan.dev Copyright (c) 2000-2021 the FFmpeg developers
  built with gcc 10.2.0 (Rev6, Built by MSYS2 project)
  configuration: ...[생략]...
  libpostproc    55.  7.100 / 55.  7.100
Input #0, matroska,webm, from 'the-ade-changed.mkv':
  Metadata:
    COMPATIBLE_BRANDS: iso6avc1mp41
    MAJOR_BRAND     : dash
    MINOR_VERSION   : 0
    ENCODER         : Lavf58.45.100
  Duration: 00:03:02.38, start: -0.007000, bitrate: 1256 kb/s
    Stream #0:0: Video: h264 (High), yuv420p(tv, bt709, progressive), 1920x1080 [SAR 1:1 DAR 16:9], 23.98 fps, 23.98 tbr, 1k tbn, 47.95 tbc (default)
    Metadata:
      HANDLER_NAME    : ISO Media file produced by Google Inc.
      DURATION        : 00:03:02.349000000
    Stream #0:1(eng): Audio: opus, 48000 Hz, stereo, fltp (default)
    Metadata:
      DURATION        : 00:03:02.381000000
Stream mapping:
  Stream #0:0 -> #0:0 (h264 (native) -> mpeg1video (native))
Press [q] to stop, [?] for help
Output #0, mpeg1video, to 'mpeg1video_q0.m1v':
  Metadata:
    COMPATIBLE_BRANDS: iso6avc1mp41
    MAJOR_BRAND     : dash
    MINOR_VERSION   : 0
    encoder         : Lavf58.45.100
    Stream #0:0: Video: mpeg1video, yuv420p, 1920x1080 [SAR 1:1 DAR 16:9], q=2-31, 200 kb/s, 23.98 fps, 23.98 tbn, 23.98 tbc (default)
    Metadata:
      HANDLER_NAME    : ISO Media file produced by Google Inc.
      DURATION        : 00:03:02.349000000
      encoder         : Lavc58.91.100 mpeg1video
    Side data:
      cpb: bitrate max/min/avg: 0/0/200000 buffer size: 0 vbv_delay: N/A
frame= 4372 fps=949 q=0.0 Lsize=  135220kB time=00:03:02.30 bitrate=6076.1kbits/s speed=39.6x
video:135220kB audio:0kB subtitle:0kB other streams:0kB global headers:0kB muxing overhead: 0.000000%

ffprobe로 확인해 보면 이렇게 나옵니다.

D:\media_sample> ffprobe mpeg1video_q0.m1v
ffprobe version 4.4.1 Copyright (c) 2007-2021 the FFmpeg developers
  built with Microsoft (R) C/C++ Optimizing Compiler Version 19.30.30705 for x64
  configuration: ...[생략]...
  libpostproc    55.  9.100 / 55.  9.100
[mpegvideo @ 0000026C8DCEF0C0] Estimating duration from bitrate, this may be inaccurate
Input #0, mpegvideo, from 'mpeg1video_q0.m1v':
  Duration: 00:00:10.56, bitrate: 104857 kb/s
  Stream #0:0: Video: mpeg1video, yuv420p(tv), 1920x1080 [SAR 1:1 DAR 16:9], 104857 kb/s, 23.98 fps, 23.98 tbr, 1200k tbn, 23.98 tbc

이렇게 생성한 동영상을 지난 "C# - ffmpeg(FFmpeg.AutoGen)를 이용한 비디오 디코딩 예제(decode_video.c)" 글에 첨부한 소스 코드에 그대로 적용하면 아무런 오류 없이 정상적으로 pgm 파일 출력이 됩니다.

아래는 그렇게 출력한 PGM 파일을 viewer로 본 것입니다. ^^

(사진은 유튜브 영상 "디에이드"의 "안다은" 님이고 사용을 허락받고 올립니다.)
decode_video_3rd_1.png

휴~~~ 속이 다 시원하네요. ^^




참고로, 다음과 같이 h264 확장자로 변환해 주면,

d:\media_sample> ffmpeg -i the-ade-changed.mkv -q:v 0 h264video_q0.h264

소스 코드에서 코덱 ID만 다음과 같이 바꿔 역시 pgm 파일로 출력할 수 있습니다.

video_decode_example(@"D:\media_sample\h264video_q0.h264", AVCodecID.AV_CODEC_ID_H264, outputPath);

또한, ffmpeg에서 출력 파일의 확장자를 hevc로 저장하면 코덱 ID를 AV_CODEC_ID_HEVC로 바꾸면 됩니다.




[이 글에 대해서 여러분들과 의견을 공유하고 싶습니다. 틀리거나 미흡한 부분 또는 의문 사항이 있으시면 언제든 댓글 남겨주십시오.]

[연관 글]






[최초 등록일: ]
[최종 수정일: 3/14/2022]

Creative Commons License
이 저작물은 크리에이티브 커먼즈 코리아 저작자표시-비영리-변경금지 2.0 대한민국 라이센스에 따라 이용하실 수 있습니다.
by SeongTae Jeong, mailto:techsharer at outlook.com

비밀번호

댓글 작성자
 




1  2  3  4  [5]  6  7  8  9  10  11  12  13  14  15  ...
NoWriterDateCnt.TitleFile(s)
12990정성태3/2/2022721오류 유형: 797. msbuild - The BaseOutputPath/OutputPath property is not set for project '[...].vcxproj'
12989정성태3/2/2022711오류 유형: 796. mstest.exe - System.IO.FileNotFoundException: Could not load file or assembly 'Microsoft.VisualStudio.QualityTools.Tips.WebLoadTest.Tip
12988정성태3/2/2022532오류 유형: 795. CI 환경에서 Docker build 시 csproj의 Link 파일에 대한 빌드 오류
12987정성태3/1/2022657.NET Framework: 1169. C# - ffmpeg(FFmpeg.AutoGen)를 이용한 demuxing_decoding.c 예제 포팅
12986정성태2/28/2022686.NET Framework: 1168. C# -IIncrementalGenerator를 적용한 Version 2 Source Generator 실습
12985정성태2/28/2022778.NET Framework: 1167. C# -Version 1 Source Generator 실습
12984정성태2/24/2022617.NET Framework: 1166. C# - ffmpeg(FFmpeg.AutoGen)를 이용한 filtering_video.c 예제 포팅
12983정성태2/24/2022645.NET Framework: 1165. .NET Core/5+ 빌드 시 runtimeconfig.json에 설정을 반영하는 방법
12982정성태2/24/2022618.NET Framework: 1164. HTTP Error 500.31 - ANCM Failed to Find Native Dependencies
12981정성태2/23/2022651VC++: 154. C/C++ 언어의 문자열 Literal에 인덱스 적용하는 구문 [1]
12980정성태2/23/2022826.NET Framework: 1163. C# - 윈도우 환경에서 usleep을 호출하는 방법 [2]
12979정성태2/22/20221079.NET Framework: 1162. C# - 인텔 CPU의 P-Core와 E-Core를 구분하는 방법파일 다운로드1
12978정성태2/21/2022639.NET Framework: 1161. C# - ffmpeg(FFmpeg.AutoGen)를 이용한 resampling_audio.c 예제 포팅
12977정성태2/21/20221744.NET Framework: 1160. C# - ffmpeg(FFmpeg.AutoGen)를 이용한 qsv 디코딩
12976정성태2/21/20221093VS.NET IDE: 174. Visual C++ - "External Dependencies" 노드 비활성화하는 방법
12975정성태2/20/2022858.NET Framework: 1159. C# - ffmpeg(FFmpeg.AutoGen)를 이용한 qsvdec.c 예제 포팅파일 다운로드1
12974정성태2/20/2022701.NET Framework: 1158. C# - SqlConnection의 최소 Pooling 수를 초과한 DB 연결은 언제 해제될까요?
12973정성태2/16/2022827개발 환경 구성: 639. ffmpeg.exe - Intel Quick Sync Video(qsv)를 이용한 인코딩 [3]
12972정성태2/16/2022742Windows: 200. Intel CPU의 내장 그래픽 GPU가 작업 관리자에 없다면? [4]
12971정성태2/15/20221560.NET Framework: 1157. C# - ffmpeg(FFmpeg.AutoGen)를 이용한 muxing.c 예제 포팅 [7]파일 다운로드1
12970정성태2/15/2022784.NET Framework: 1156. C# - ffmpeg(FFmpeg.AutoGen): Bitmap으로부터 h264 형식의 파일로 쓰기 [1]파일 다운로드1
12969정성태2/14/2022679개발 환경 구성: 638. Visual Studio의 Connection Manager 기능(Remote SSH 관리)을 위한 명령행 도구 - 두 번째 이야기파일 다운로드1
12968정성태2/14/2022481오류 유형: 794. msbuild 에러 - error NETSDK1005: Assets file '...\project.assets.json' doesn't have a target for '...'.
12967정성태2/14/2022693VC++: 153. Visual C++ - C99 표준의 Compund Literals 빌드 방법 [4]
12966정성태2/13/2022636.NET Framework: 1155. C# - ffmpeg(FFmpeg.AutoGen): Bitmap으로부터 yuv420p + rawvideo 형식의 파일로 쓰기파일 다운로드1
12965정성태2/13/2022835.NET Framework: 1154. "Hanja Hangul Project v1.01 (파이썬)"의 C# 버전
1  2  3  4  [5]  6  7  8  9  10  11  12  13  14  15  ...