Microsoft MVP성태의 닷넷 이야기
글쓴 사람
정성태 (techsharer at outlook.com)
홈페이지
첨부 파일
 

ffmpeg.exe를 사용해 비디오 파일의 이미지를 PGM(Portable Gray Map) 파일 포맷으로 출력하는 방법

아래의 문서에 pgm 파일 포맷에 대한 개략적인 설명이 있습니다.

pgm
; http://netpbm.sourceforge.net/doc/pgm.html

ffmpeg의 경우에도 pgm 포맷을 지원하는데요, 간단하게 어떻게 되는지 테스트를 해볼까요? ^^

우선, 동영상을 구해야 하니 youtube-dl을 이용해, 다음과 같이 유튜브로부터 다운로드해봅니다.

d:\video_sample> D:\Tools\youtube-dl\youtube-dl.exe -f 137+140 rOwaZb9h4Jc --output mp4video_sample.mp4
[youtube] 9C6ALImuEzY: Downloading webpage
[download] Destination: mp4video_sample.f137.mp4
[download] 100% of 48.09MiB in 18:24
[download] Destination: mp4video_sample.f140.m4a
[download] 100% of 2.88MiB in 01:06
[ffmpeg] Merging formats into "mp4video_sample.mp4.mp4"
Deleting original file mp4video_sample.f137.mp4 (pass -k to keep)
Deleting original file mp4video_sample.f140.m4a (pass -k to keep)

자, 이렇게 생성한 mp4video_sample.mp4 동영상 파일에서 10초 간격으로 이미지를 PGM 파일 포맷으로 저장해 보겠습니다.

D:\video_sample> ffmpeg -i "mp4video_sample.mp4" -vf fps=1/10 out%d.pgm
ffmpeg version 4.3.2-2021-02-27-full_build-www.gyan.dev Copyright (c) 2000-2021 the FFmpeg developers
  built with gcc 10.2.0 (Rev6, Built by MSYS2 project)
  configuration: --enable-gpl --enable-version3 --enable-static --disable-w32threads --disable-autodetect --enable-fontconfig --enable-iconv --enable-gnutls --enable-libxml2 --enable-gmp --enable-lzma --enable-libsnappy --enable-zlib --enable-libsrt --enable-libssh --enable-libzmq --enable-avisynth --enable-libbluray --enable-libcaca --enable-sdl2 --enable-libdav1d --enable-libzvbi --enable-librav1e --enable-libwebp --enable-libx264 --enable-libx265 --enable-libxvid --enable-libaom --enable-libopenjpeg --enable-libvpx --enable-libass --enable-frei0r --enable-libfreetype --enable-libfribidi --enable-libvidstab --enable-libvmaf --enable-libzimg --enable-amf --enable-cuda-llvm --enable-cuvid --enable-ffnvcodec --enable-nvdec --enable-nvenc --enable-d3d11va --enable-dxva2 --enable-libmfx --enable-libcdio --enable-libgme --enable-libmodplug --enable-libopenmpt --enable-libopencore-amrwb --enable-libmp3lame --enable-libshine --enable-libtheora --enable-libtwolame --enable-libvo-amrwbenc --enable-libilbc --enable-libgsm --enable-libopencore-amrnb --enable-libopus --enable-libspeex --enable-libvorbis --enable-ladspa --enable-libbs2b --enable-libflite --enable-libmysofa --enable-librubberband --enable-libsoxr --enable-chromaprint
  libavutil      56. 51.100 / 56. 51.100
  libavcodec     58. 91.100 / 58. 91.100
  libavformat    58. 45.100 / 58. 45.100
  libavdevice    58. 10.100 / 58. 10.100
  libavfilter     7. 85.100 /  7. 85.100
  libswscale      5.  7.100 /  5.  7.100
  libswresample   3.  7.100 /  3.  7.100
  libpostproc    55.  7.100 / 55.  7.100
Input #0, mov,mp4,m4a,3gp,3g2,mj2, from 'mp4video_sample.mp4':
  Metadata:
    major_brand     : isom
    minor_version   : 512
    compatible_brands: isomiso2avc1mp41
    encoder         : Lavf58.45.100
  Duration: 00:03:06.50, start: 0.000000, bitrate: 2295 kb/s
    Stream #0:0(und): Video: h264 (High) (avc1 / 0x31637661), yuv420p(tv, bt709), 1920x1080 [SAR 1:1 DAR 16:9], 2160 kb/s, 30 fps, 30 tbr, 15360 tbn, 60 tbc (default)
    Metadata:
      handler_name    : ISO Media file produced by Google Inc.
    Stream #0:1(und): Audio: aac (LC) (mp4a / 0x6134706D), 44100 Hz, stereo, fltp, 127 kb/s (default)
    Metadata:
      handler_name    : ISO Media file produced by Google Inc.
Stream mapping:
  Stream #0:0 -> #0:0 (h264 (native) -> pgm (native))
Press [q] to stop, [?] for help
Output #0, image2, to 'out%d.pgm':
  Metadata:
    major_brand     : isom
    minor_version   : 512
    compatible_brands: isomiso2avc1mp41
    encoder         : Lavf58.45.100
    Stream #0:0(und): Video: pgm, gray, 1920x1080 [SAR 1:1 DAR 16:9], q=2-31, 200 kb/s, 0.10 fps, 0.10 tbn, 0.10 tbc (default)
    Metadata:
      handler_name    : ISO Media file produced by Google Inc.
      encoder         : Lavc58.91.100 pgm
frame=   19 fps=9.4 q=-0.0 Lsize=N/A time=00:03:10.00 bitrate=N/A speed=94.3x
video:38475kB audio:0kB subtitle:0kB other streams:0kB global headers:0kB muxing overhead: unknown

실행 후, 10초 간격의 동영상에 대한 thumbnail 파일이 PGM 파일 포맷으로 저장된 것을 확인할 수 있습니다. 해당 파일을 메모장으로 열어 보면,

P5
1920 1080
255
eeeefffffff...[생략]...

"P5"라는 signature로 시작해 개행 후, 이미지의 해상도와 255라는 숫자가 나옵니다. 여기서 255는 maximum gray value (Maxval: 허용 범위 0 < x < 65536) 값을 의미합니다.

정상적으로 이미지가 출력되었는지 pgm viewer가 있어야 하는데요, 다행히 아래의 사이트에서 그 기능을 온라인으로 제공하고 있습니다.

PGM File Viewer (browser-based)
; https://smallpond.ca/jim/photomicrography/pgmViewer/index.html

이전 단계에서 생성했던 pgm 파일을 선택하면, 다음과 같이 렌더링이 잘 되는 것을 확인할 수 있습니다.

(사진은 유튜브 영상 "디에이드"의 "안다은" 님이고 사용을 허락받고 올립니다.)
pgm_file_format_1.png




[이 글에 대해서 여러분들과 의견을 공유하고 싶습니다. 틀리거나 미흡한 부분 또는 의문 사항이 있으시면 언제든 댓글 남겨주십시오.]

[연관 글]






[최초 등록일: ]
[최종 수정일: 1/17/2022]

Creative Commons License
이 저작물은 크리에이티브 커먼즈 코리아 저작자표시-비영리-변경금지 2.0 대한민국 라이센스에 따라 이용하실 수 있습니다.
by SeongTae Jeong, mailto:techsharer at outlook.com

비밀번호

댓글 작성자
 




[1]  2  3  4  5  6  7  8  9  10  11  12  13  14  15  ...
NoWriterDateCnt.TitleFile(s)
13064정성태5/18/202252.NET Framework: 2016. C# - JIT 컴파일러의 인라인 메서드 처리 유무
13063정성태5/18/202287.NET Framework: 2015. C# - 인라인 메서드(inline methods)
13062정성태5/17/2022217.NET Framework: 2014. C# - async/await 그리고 스레드 (4) 비동기 I/O 재현파일 다운로드1
13061정성태5/16/202270.NET Framework: 2013. C# - FILE_FLAG_OVERLAPPED가 적용된 파일의 읽기/쓰기 시 Position 관리파일 다운로드1
13060정성태5/15/2022146.NET Framework: 2012. C# - async/await 그리고 스레드 (3) Task.Delay 재현파일 다운로드1
13059정성태5/14/2022145.NET Framework: 2011. C# - CLR ThreadPool의 I/O 스레드에 작업을 맡기는 방법파일 다운로드1
13058정성태5/13/202289.NET Framework: 2010. C# - ThreadPool.SetMaxThreads 사용법
13057정성태5/12/202254오류 유형: 812. 파이썬 - ImportError: cannot import name ...
13056정성태5/12/2022256.NET Framework: 2009. C# - async/await 그리고 스레드 (2) MyTask의 호출 흐름 [2]파일 다운로드1
13055정성태5/11/2022358.NET Framework: 2008. C# - async/await 그리고 스레드 (1) MyTask로 재현 [4]파일 다운로드1
13054정성태5/11/2022224.NET Framework: 2007. C# - 10진수 숫자를 담은 문자열을 숫자로 변환하는 방법 [9]파일 다운로드1
13053정성태5/10/2022103.NET Framework: 2006. C# - GC.KeepAlive 메서드의 역할
13052정성태5/9/2022174.NET Framework: 2005. C# - 생성한 참조 개체가 언제 GC의 정리 대상이 될까요?
13051정성태5/8/202298.NET Framework: 2004. C# XingAPI - ACF 검색 결과로 구한 CSV 파일을 통해 퀀트 종목 찾기파일 다운로드1
13050정성태5/6/202295.NET Framework: 2003. C# - COM 개체의 이벤트 핸들러에서 발생하는 예외에 대한 CLR의 특별 대우파일 다운로드1
13049정성태5/6/202248오류 유형: 811. GoLand - Error: Cannot find package
13048정성태5/6/202257오류 유형: 810. "ASUS TUF GAMING B550M-PLUS (WI-FI)" 모델에서 블루투스 장치가 인식이 안 되는 문제
13047정성태5/6/202246오류 유형: 809. Speech Recognition could not start
13046정성태5/5/202297.NET Framework: 2002. C# XingAPI - ACF 파일을 이용한 퀀트 종목 찾기(t1857)
13045정성태5/5/202290.NET Framework: 2001. C# XingAPI - 주식 종목에 따른 PBR, PER, ROE 구하는 방법(t3341 예제)
13044정성태5/4/202253오류 유형: 808. error : clang++ exited with code 127
13043정성태5/3/202261오류 유형: 807. C# - 닷넷 응용 프로그램에서 Informix DB 사용 시 오류 메시지 정리
13042정성태5/3/2022142.NET Framework: 2000. C# - 닷넷 응용 프로그램에서 Informix DB 사용 방법파일 다운로드1
13041정성태4/28/202283개발 환경 구성: 642. Informix 데이터베이스 docker 환경 구성
13040정성태4/27/202286VC++: 156. 비주얼 스튜디오 - Linux C/C++ 프로젝트에서 openssl 링크하는 방법
[1]  2  3  4  5  6  7  8  9  10  11  12  13  14  15  ...